Вход на сайт

Введите ваш логин:
Введите ваш пароль:
Напомнить пароль

Лучшие торренты тут у нас

(2009) СЕРГЕЙ НАГОВИЦЫН / The Best Of - 2009 (Шансон) [FLAC (image+.cue) lossless]







Исполнитель: Сергей Наговицын
Альбом: The Best Of - 2009
Тип альбома: Официальный альбом
Год выпуска: 2009
Жанр: Шансон
Формат: FLAC (image+.cue)
Битрейт: lossless
Продолжительность: 1:13:36

Tреклист:
01. Городские встречи (4:02)
02. Приговор (7:32)
03. Потерянный край (6:53)
04. На свиданку (7:16)
05. Без проституток и воров (5:22)
06. Столичная (7:54)
07. До свиданья, кореша (7:04)
08. Белый снег (5:32)
09. Озоновый слой (6:34)
10. На суде (6:26)
11. Дори-дори (3:33)
12. Любимой посвящается (5:28)

Отчет ABC:▼
------------------------------------------------------------------
Filename: Сергей Наговицын - The Best Of.flac (515.97mb)
Source: CDDA (probability 100%)
Detect Mode : 8
Date: 09.11.2009 05-18-37
------------------------------------------------------------------
File Generated by Ape Batch Check 1.4a (build 29.04.2008)

Monkeys Audio: (c) Matthew T. Ashland; http://www.monkeysaudio.com/
auCDtect.exe: (c) Oleg Berngardt; Alexander Djourik; http://www.true-audio.com
Ape Batch Check : Bete Noire; http://betenoire.narod.ru/

Отчет EAC:
▼Exact Audio Copy V0.99 prebeta 4 from 23. January 2008

Отчёт EAC об извлечении, выполненном 22. апреля 2009, 8:28

Сергей Наговицын / The Best Of

Дисковод: Optiarc DVD RW AD-7201S Adapter: 5ID: 0

Режим чтения : Достоверность
Использование точного потока : Да
Отключение кэша аудио: Да
Использование указателей C2: Нет

Коррекция смещения при чтении : 48
Способность читать области Lead-in и Lead-out : Нет
Заполнение пропущенных сэмплов тишиной: Да
Удаление блоков с тишиной в начале и конце: Нет
При вычислениях CRC использовались нулевые сэмплы : Да
Интерфейс : Установленный внешний ASPI-интерфейс

Выходной формат : Внутренние WAV-операции
Формат сэмплов: 44.100 Гц; 16 бит; стерео


TOC извлечённого CD

Трек | Старт| Длительность | Начальный сектор | Конечный сектор
---------------------------------------------------------------------
1|0:00.00 |4:01.59 | 0|18133
2|4:01.59 |7:32.16 | 18134|52049
3| 11:34.00 |6:53.09 | 52050|83033
4| 18:27.09 |7:15.65 | 83034| 115723&




(2009) СЕРГЕЙ НАГОВИЦЫН / The Best Of - 2009 (Шансон) [FLAC (image+.cue) lossless]
Информация
Посетители, находящиеся в группе Гости, не могут оставлять комментарии к данной публикации.