Вход на сайт

Введите ваш логин:
Введите ваш пароль:
Напомнить пароль

Лучшие торренты тут у нас

(2013) Prodigy & The Alchemist / Albert Einstein (Underground Hip-Hop) [FLAC (tracks+.cue), lossless]







Исполнитель: Prodigy & The Alchemist
Страна: USA
Альбом: Albert Einstein
Тип альбома: Студийный
Год выпуска: 2013
Жанр: Underground Hip-Hop
Аудиокодек: FLAC (*.flac)
Тип рипа: tracks+.cue
Битрейт: lossless
Продолжительность: 00:47:46

Tреклист:
01. Intro (0:25)
02. Lmdkv (2:35)
03. Give Em Hell (2:56)
04. Stay Dope (3:18)
05. Curb Ya Dog (3:13)
06. Death Sentence (feat. Roc Marciano) (3:14)
07. Bear Meat (2:52)
08. Y.N.T. (feat. Domo Genesis) (2:36)
09. R.I.P. (feat. Havoc & Raekwon) (3:22)
10. Dough Pildin (2:26)
11. Confessions (3:37)
12. Bible Paper (3:44)
13. The One (feat. Action Bronson) (3:35)
14. Breeze (3:02)
15. Raw Forever (4:27)
16. Say My Name (2:22)

Лог создания рипа ▼TextExact Audio Copy V1.0 beta 3 from 29. August 2011

EAC extraction logfile from 16. July 2013, 17:14

Prodigy / Albert Einstein

Used drive : MATSHITADVD-RAM UJ8C2 Adapter: 0 ID: 0

Read mode : Secure
Utilize accurate stream : Yes
Defeat audio cache : Yes
Make use of C2 pointers : No

Read offset correction : 103
Overread into Lead-In and Lead-Out : No
Fill up missing offset samples with silence : Yes
Delete leading and trailing silent blocks : No
Null samples used in CRC calculations : Yes
Used interface : Native Win32 interface for Win NT & 2000
Gap handling : Appended to previous track

Used output format : User Defined Encoder
Selected bitrate : 1024 kBit/s
Quality : High
Add ID3 tag : No
Command line compressor : C:Program Files (x86)Exact Audio CopyFlacflac.exe
Additional command line options : -8 -V -T "ARTIST=%artist%" -T "TITLE=%title%" -T "ALBUM=%albumtitle%" -T "DATE=%year%" -T "TRACKNUMBER=%tracknr%" -T "GENRE=%genre%" -T "PERFORMER=%albuminterpret%" -T "COMPOSER=%composer%" %haslyrics%--tag-from-file=LYRICS="%lyricsfile%"%haslyrics% -T "ALBUMARTIST=%albumartist%" -T "DISCNUMBER=%cdnumber%" -T "TOTALDISCS=%totalcds%" -T "TOTALTRACKS=%numtracks%" -T "COMMENT=%comment%" %source% -o %dest%

TOC of the extracted CD

Track | Start | Length | Start sector | End sector
---------------------------------------------------------
1 | 0:00.00 | 0:25.14 | 0 | 1888
2 | 0:25.14 | 2:35.01 | 1889 | 13514
3 | 3:00.15 | 2:56.50 | 13515 | 26764
4 | 5:56.65 | 3:19.44 | 26765 | 41733
5 | 9:16.34 | 3:13.70 | 41734 | 56278
6 | 12:30.29 | 3:14.73 | 56279 | 70901
7 | 15:45.27 | 2:52.05 | 70902 &nb




(2013) Prodigy & The Alchemist / Albert Einstein (Underground Hip-Hop) [FLAC (tracks+.cue), lossless]
Информация
Посетители, находящиеся в группе Гости, не могут оставлять комментарии к данной публикации.