Вход на сайт

Введите ваш логин:
Введите ваш пароль:
Напомнить пароль

Лучшие торренты тут у нас

(2012) The Rasmus / The Rasmus (Tour Edition) FLAC (tracks+.cue), lossless







Исполнитель: The Rasmus
Страна-производитель диска: Finland
Альбом: The Rasmus (Tour Edition)
Год выпуска: 2012
Жанр: Alternative Rock/ Melodic Rock
Каталожный номер: #3721151
Аудиокодек: FLAC (*.flac)
Тип рипа: tracks+.cue
Битрейт: lossless
Продолжительность: 00:58:30
Источник (релизер): Собственный рип
Наличие сканов в содержимом раздачи: да


Tреклист:
01. Stranger [03:58]
02. Im A Mess [04:12]
03. Its Your Night [03:37]
04. Save Me Once Again [04:35]
05. Someones Gonna Light You Up [03:43]
06. End Of The Story [04:10]
07. You Dont See Me [03:12]
08. Somewhere [05:28]
09. Friends Dont Do Like That [04:26]
10. Sky [03:58]
11. Mysteria (bonus track) [03:35]
12. Stranger (Felix Zenger Beatbox Remix) (bonus track) [03:17]
13. Stranger Wanderer (Remix by DJ Tuhat) (bonus track) [03:31]
14. Sky (Piano by Aynsley Green) (bonus track) [03:51]
15. Save Me Once Again (Piano by Aynsley Green) (bonus track) [02:47]
Лог создания рипа ▼TextExact Audio Copy V0.99 prebeta 5 from 4. May 2009

Отчёт EAC об извлечении, выполненном 7. января 2013, 9:04

The Rasmus / The Rasmus (Tour Edition)

Дисковод: HL-DT-STBD-RE UH10LS20 Adapter: 3 ID: 0

Режим чтения : Достоверность
Использование точного потока : Да
Отключение кэша аудио : Да
Использование указателей C2 : Нет

Коррекция смещения при чтении : 667
Способность читать области Lead-in и Lead-out : Нет
Заполнение пропущенных сэмплов тишиной : Да
Удаление блоков с тишиной в начале и конце : Нет
При вычислениях CRC использовались нулевые сэмплы : Да
Интерфейс : Установленный внешний ASPI-интерфейс
Обработка зазоров : Добавлено к предыдущему треку

Выходной формат : Пользовательский кодировщик
Выбранный битрейт : 768 kBit/s
Качество : Высокий
Добавление ID3-тэга : Нет
Утилита сжатия : C:Program FilesExact Audio CopyFLACFLAC.EXE
Дополнительные параметры : -6 -V -T "ARTIST=%a" -T "TITLE=%t" -T "ALBUM=%g" -T "DATE=%y" -T "TRACKNUMBER=%n" -T "GENRE=%m" -T "COMMENT=%e" %s -o %d

TOC извлечённого CD

Трек | Старт | Длительность | Начальный сектор | Конечный сектор
---------------------------------------------------------------------
1 | 0:00.00 | 3:58.40 | 0 | 17889
2 | 3:58.40 | 4:12.56 | 17890 | 36845
3 | 8:11.21 | 3:37.35 | 36846 | 53155
4 | 11:48.56 | 4:35.40 | 53156 | 73820
5 | 16:24.21 | 3:43.64 | 73821 | 90609
6 | 20:08.10 | 4:10.28 | 90610&nb




(2012) The Rasmus / The Rasmus (Tour Edition) FLAC (tracks+.cue), lossless
Информация
Посетители, находящиеся в группе Гости, не могут оставлять комментарии к данной публикации.