Вход на сайт

Введите ваш логин:
Введите ваш пароль:
Напомнить пароль

Лучшие торренты тут у нас

(2012) Mark Lanegan Band / Blues Funeral (Alternative Rock/Blues Rock) [FLAC (tracks+.cue), lossless]









Альбом: Blues Funeral
Тип альбома: Cтудийный
Год выпуска: 2012
Страна: США
Жанр: Alternative Rock/Blues Rock
Формат: FLAC (tracks+.cue)
Битрейт: lossless
Log-файл: Присутствует
Продолжительность: 00:55:28


01. The Gravediggers Song (03:43)
02. Bleeding Muddy Water (06:17)
03. Gray Goes Black (04:10)
04. St. Louis Elegy (04:33)
05. Riot In My House (03:52)
06. Ode To Sad Disco (06:24)
07. Phantasmagoria Blues (03:15)
08. Quiver Syndrome (04:03)
09. Harborview Hospital (04:31)
10. Leviathan (04:21)
11. Deep Black Vanishing Train (03:06)
12. Tiny Grain Of Truth (07:07)

Отчет "EAC" ▼TextExact Audio Copy V1.0 beta 3 from 29. August 2011

EAC extraction logfile from 7. February 2012, 18:46

Mark Lanegan Band / Blues Funeral

Used drive : Optiarc DVD RW AD-7201S Adapter: 2 ID: 0

Read mode : Secure
Utilize accurate stream : Yes
Defeat audio cache : Yes
Make use of C2 pointers : No

Read offset correction : 48
Overread into Lead-In and Lead-Out : No
Fill up missing offset samples with silence : Yes
Delete leading and trailing silent blocks : No
Null samples used in CRC calculations : Yes
Used interface : Native Win32 interface for Win NT & 2000
Gap handling : Appended to previous track

Used output format : User Defined Encoder
Selected bitrate : 128 kBit/s
Quality : High
Add ID3 tag : No
Command line compressor : C:Program Files (x86)FLACflac.exe
Additional command line options : -8 -V -T "ARTIST=%artist%" -T "TITLE=%title%" -T "ALBUM=%albumtitle%" -T "DATE=%year%" -T "TRACKNUMBER=%tracknr%" -T "GENRE=%genre%" -T "PERFORMER=%albuminterpret%" -T "COMPOSER=%composer%" %haslyrics%--tag-from-file=LYRICS="%lyricsfile%"%haslyrics% -T "ALBUMARTIST=%albumartist%" -T "ALBUM ARTIST=%albumartist%" -T "DISCNUMBER=%cdnumber%" -T "TOTALDISCS=%totalcds%" -T "TOTALTRACKS=%numtracks%" -T "COMMENT=%comment%" %source% -o %dest%

TOC of the extracted CD

Track | Start | Length | Start sector | End sector
---------------------------------------------------------
1 | 0:00.00 | 3:43.18 | 0 | 16742
2 | 3:43.18 | 6:17.29 | 16743 | 45046
3 | 10:00.47 | 4:10.65 | 45047 | 63861
4 | 14:11.37 | 4:33.71 | 63862 | 84407
5 | 18:45.33 | 3:52.71 | 84408 | 101878
6 | 22:38.29 | 6:24.01 | 101879 | 130679
7 | 29:02.30 | 3:15.70 | 130680 | 145374
8 | 32:18.25 | 4:03.15 | 14537




(2012) Mark Lanegan Band / Blues Funeral (Alternative Rock/Blues Rock) [FLAC (tracks+.cue), lossless]
Информация
Посетители, находящиеся в группе Гости, не могут оставлять комментарии к данной публикации.