Вход на сайт

Введите ваш логин:
Введите ваш пароль:
Напомнить пароль

Лучшие торренты тут у нас

(2013) Paul McCartney / New (Deluxe Edition) (Rock) [FLAC (image,+.cue), lossless]







Исполнитель: Paul McCartney
Страна: England
Альбом: New (Deluxe Edition)
Тип альбома: Студийный
Год выпуска: 2013
Жанр: Rock
Страна (Издатель, Каталожный номер): Germany (Universal, Concord, EU, HRM-34845-02)
Аудиокодек: FLAC (*.flac)
Тип рипа: image+.cue
Битрейт: lossless
Продолжительность: 00:52:22

Tреклист:
01. Save Us - 2:39
02. Alligator - 3:27
03. On My Way To Work - 3:43
04. Queenie Eye - 3:48
05. Early Days - 4:08
06. New - 2:57
07. Appreciate - 4:29
08. Everybody Out There - 3:21
09. Hosanna - 3:30
10. I Can Bet - 3:22
11. Looking At Her - 3:05
12. Road - 4:36
13. Turned Out - 3:00
14. Get Me Out Of Here - 3:28
15. Scared - 2:49


Лог создания рипа ▼TextExact Audio Copy V1.0 beta 3 from 29. August 2011

EAC extraction logfile from 6. November 2013, 0:25

Paul McCartney / New (Deluxe Edition)

Used drive : ATAPI iHAS124 B Adapter: 2 ID: 0

Read mode : Secure
Utilize accurate stream : Yes
Defeat audio cache : Yes
Make use of C2 pointers : No

Read offset correction : 6
Overread into Lead-In and Lead-Out : No
Fill up missing offset samples with silence : Yes
Delete leading and trailing silent blocks : No
Null samples used in CRC calculations : Yes
Used interface : Native Win32 interface for Win NT & 2000

Used output format : User Defined Encoder
Selected bitrate : 1024 kBit/s
Quality : High
Add ID3 tag : No
Command line compressor : C:Program Files (x86)Exact Audio CopyFLACFLAC.EXE
Additional command line options : -8 -V -T "ARTIST=%artist%" -T "TITLE=%title%" -T "ALBUM=%albumtitle%" -T "DATE=%year%" -T "TRACKNUMBER=%tracknr%" -T "GENRE=%genre%" -T "PERFORMER=%albuminterpret%" -T "COMPOSER=%composer%" %haslyrics%--tag-from-file=LYRICS="%lyricsfile%"%haslyrics% -T "ALBUMARTIST=%albumartist%" -T "DISCNUMBER=%cdnumber%" -T "TOTALDISCS=%totalcds%" -T "TOTALTRACKS=%numtracks%" -T "COMMENT=%comment%" %source% -o %dest%


TOC of the extracted CD

Track | Start | Length | Start sector | End sector
---------------------------------------------------------
1 | 0:00.00 | 2:39.30 | 0 | 11954
2 | 2:39.30 | 3:27.09 | 11955 | 27488
3 | 6:06.39 | 3:43.13 | 27489 | 44226
4 | 9:49.52 | 3:48.04 | 44227 | 61330
5 | 13:37.56 | 4:07.51 | 61331 | 79906
6 | 17:45.32 | 2:56.59 | 79907 | 93165
7 | 20:42.16 | 4:28.47 | 93166 | 113312
8 | 25:10.63




(2013) Paul McCartney / New (Deluxe Edition) (Rock) [FLAC (image,+.cue), lossless]
Информация
Посетители, находящиеся в группе Гости, не могут оставлять комментарии к данной публикации.