Вход на сайт

Введите ваш логин:
Введите ваш пароль:
Напомнить пароль

Лучшие торренты тут у нас

(2014) Ozzy Osbourne / Dreamer (Hard Rock, Heavy Metal, Power Ballad) [FLAC (image + .cue), lossless]







Исполнитель: Ozzy Osbourne
Страна: UK
Альбом: Dreamer
Тип альбома: Compilation
Год выпуска: 2014
Жанр: Rock, Hard Rock, Heavy Metal, Power Ballad
Аудиокодек: FLAC (*.flac)
Тип рипа: image+.cue
Битрейт: lossless
Продолжительность: 01:15:13


Tреклист:

01. You Wont Change Me (06:31)
02. See You On The Other Side (06:04)
03. Youre No Different (04:59)
04. Shes Gone (04:56)
05. Goodbye To Romance (05:32)
06. Mama, Im Coming Home (04:15)
07. I Just Want You (04:06)
08. Time After Time (04:22)
09. Old L.A. Tonight (04:49)
10. Ghost Behind My Eyes (05:12)
11. Road To Nowhere (05:11)
12. So Tired (04:00)
13. Killer Of Giants (05:44)
14. Changes (04:43)
15. Dreamer (04:49)

Лог создания рипа ▼TextExact Audio Copy V0.99 prebeta 5 from 4. May 2009

EAC extraction logfile from 8. January 2014, 16:03

Ozzy Osbourne / Dreamer

Used drive : MATSHITADVD-RAM UJ870BJ Adapter: 2 ID: 1

Read mode : Secure
Utilize accurate stream : Yes
Defeat audio cache : Yes
Make use of C2 pointers : No

Read offset correction : 102
Overread into Lead-In and Lead-Out : No
Fill up missing offset samples with silence : Yes
Delete leading and trailing silent blocks : No
Null samples used in CRC calculations : Yes
Used interface : Native Win32 interface for Win NT & 2000

Used output format : Internal WAV Routines
Sample format : 44.100 Hz; 16 Bit; Stereo


TOC of the extracted CD

Track | Start | Length | Start sector | End sector
---------------------------------------------------------
1 | 0:00.00 | 6:30.18 | 0 | 29267
2 | 6:30.18 | 6:04.00 | 29268 | 56567
3 | 12:34.18 | 4:59.07 | 56568 | 78999
4 | 17:33.25 | 4:56.45 | 79000 | 101244
5 | 22:29.70 | 5:32.00 | 101245 | 126144
6 | 28:01.70 | 4:14.27 | 126145 | 145221
7 | 32:16.22 | 4:06.32 | 145222 | 163703
8 | 36:22.54 | 4:22.01 | 163704 | 183354
9 | 40:44.55 | 4:49.17 | 183355 | 205046
10 | 45:33.72 | 5:12.24 | 205047 | 228470
11 | 50:46.21 | 5:10.32 | 228471 | 251752
12 | 55:56.53 | 4:00.09 | 251753 | 269761
13 | 59:56.62 | 5:44.48 | 269762 | 295609
14 | 65:41.35 | 4:43.32 | 295610 | 316866
15 | 70:24.67 | 4:48.11 | 316867 | 338477&nbs




(2014) Ozzy Osbourne / Dreamer (Hard Rock, Heavy Metal, Power Ballad) [FLAC (image + .cue), lossless]
Информация
Посетители, находящиеся в группе Гости, не могут оставлять комментарии к данной публикации.