Вход на сайт

Введите ваш логин:
Введите ваш пароль:
Напомнить пароль

Лучшие торренты тут у нас

(2013) Linkin Park / Underground XIII (Alternative Rock) [FLAC (tracks+.cue), lossless]








Исполнитель:Linkin Park
Страна: USA
Альбом:Underground XIII
Тип альбома:Студийный
Год выпуска:2013
Жанр:Alternative Rock
Издатель (лейбл): Warner Bros. Records
Аудиокодек: FLAC (*.flac)
Тип рипа: tracks+.cue
Битрейт: lossless
Продолжительность: 00:44:53



Tреклист:
[03:22] 01. Linkin Park - Basquiat (2007 Demo)
[05:02] 02. Linkin Park - Holding Company (2011 Demo)
[05:57] 03. Linkin Park - Primo (Ill Be Gone - Longform 2010 Demo)
[03:42] 04. Linkin Park - Hemispheres (2011 Demo)
[03:04] 05. Linkin Park - Cumulus (2002 Demo)
[04:05] 06. Linkin Park - Pretty Birdy (Somewhere I Belong 2002 Demo)
[03:58] 07. Linkin Park - Universe (2006 Demo)
[02:42] 08. Linkin Park - Apaches (Until It Breaks Demo No. 1)
[02:29] 09. Linkin Park - Foot Patrol (Until It Breaks Demo No. 2)
[02:00] 10. Linkin Park - Three Band Terror (Until It Breaks Demo No. 3)
[04:23] 11. Ryan Giles - Truth Inside A Lie (LPU Sessions 2013)
[04:06] 12. Beta State - Change (LPU Sessions 2013)

Лог создания рипа ▼TextExact Audio Copy V1.0 beta 3 from 29. August 2011

Отчёт EAC об извлечении, выполненном 9. января 2014, 19:16

Linkin Park / Underground XIII

Дисковод: Optiarc DVD RW AD-7203A Adapter: 2 ID: 1

Режим чтения : Достоверность
Использование точного потока : Да
Отключение кэша аудио : Да
Использование указателей C2 : Нет

Коррекция смещения при чтении : 48
Способность читать области Lead-in и Lead-out : Нет
Заполнение пропущенных сэмплов тишиной : Да
Удаление блоков с тишиной в начале и конце : Нет
При вычислениях CRC использовались нулевые сэмплы : Да
Интерфейс : Встроенный Win32-интерфейс для Win NT/2000
Обработка зазоров : Добавлено к предыдущему треку

Выходной формат : Пользовательский кодировщик
Выбранный битрейт : 1024 kBit/s
Качество : Высокий
Добавление ID3-тега : Нет
Утилита сжатия : C:Program Files (x86)Exact Audio CopyFlacflac.exe
Дополнительные параметры : -V -8 -T "Genre=%genre%" -T "Artist=%artist%" -T "Title=%title%" -T "Album=%albumtitle%" -T "Date=%year%" -T "Tracknumber=%tracknr%" -T "Comment=%comment%" %source%


TOC извлечённого CD

Трек | Старт | Длительность | Начальный сектор | Конечный сектор
---------------------------------------------------------------------
1 | 0:00.00 | 3:22.03 | 0 | 15152
2 | 3:22.03 | 5:02.14 | 15153 | 37816
3 | 8:24.17 | 5:57.01 | 37817 | 64592
4 | 14:21.18 | 3:42.12 | 64593 | 81254
5 | 18:03.30 |




(2013) Linkin Park / Underground XIII (Alternative Rock) [FLAC (tracks+.cue), lossless]
Информация
Посетители, находящиеся в группе Гости, не могут оставлять комментарии к данной публикации.