Вход на сайт

Введите ваш логин:
Введите ваш пароль:
Напомнить пароль

Лучшие торренты тут у нас

(2012) Our Lady Peace / Curve (Alternative/Rock) [FLAC (tracks+.cue), lossless]









Альбом: Curve
Тип альбома: Студийный
Год выпуска: 2012
Страна: Канада
Жанр: Alternative/Rock
Формат: FLAC (tracks+.cue)
Битрейт: lossless
Log-файл: Присутствует
Продолжительность: 00:41:34


01. Allowance (03:30)
02. Fire In The Hen House (03:30)
03. Heavyweight (04:17)
04. Window Seat (04:15)
05. As Fast As You Can (03:11)
06. If This Is It (04:50)
07. Will Someday Change (03:43)
08. Find Our Way (04:49)
09. Rabbits (05:33)
10. Mettle (03:52)


Отчет "EAC" ▼Text
Exact Audio Copy V1.0 beta 3 from 29. August 2011

EAC extraction logfile from 3. April 2012, 12:35

Our Lady Peace / Curve

Used drive : PIONEER DVDRW DR-TD08HB Adapter: 1 ID: 0

Read mode : Secure
Utilize accurate stream : Yes
Defeat audio cache : Yes
Make use of C2 pointers : No

Read offset correction : 48
Overread into Lead-In and Lead-Out : No
Fill up missing offset samples with silence : Yes
Delete leading and trailing silent blocks : No
Null samples used in CRC calculations : Yes
Used interface : Native Win32 interface for Win NT & 2000
Gap handling : Appended to previous track

Used output format : User Defined Encoder
Selected bitrate : 1024 kBit/s
Quality : High
Add ID3 tag : No
Command line compressor : C:Program Files (x86)Exact Audio CopyFlacflac.exe
Additional command line options : -8 -V -T "ARTIST=%artist%" -T "TITLE=%title%" -T "ALBUM=%albumtitle%" -T "DATE=%year%" -T "TRACKNUMBER=%tracknr%" -T "GENRE=%genre%" -T "PERFORMER=%albuminterpret%" -T "COMPOSER=%composer%" %haslyrics%--tag-from-file=LYRICS="%lyricsfile%"%haslyrics% -T "ALBUMARTIST=%albumartist%" -T "DISCNUMBER=%cdnumber%" -T "TOTALDISCS=%totalcds%" -T "TOTALTRACKS=%numtracks%" -T "COMMENT=%comment%" %source% -o %dest%

TOC of the extracted CD

Track | Start | Length | Start sector | End sector
---------------------------------------------------------
1 | 0:00.00 | 3:30.20 | 0 | 15769
2 | 3:30.20 | 3:30.55 | 15770 | 31574
3 | 7:01.00 | 4:17.33 | 31575 | 50882
4 | 11:18.33 | 4:15.67 | 50883 | 70074
5 | 15:34.25 | 3:11.13 | 70075 | 84412
6 | 18:45.38 | 4:50.15 | 84413 | 106177
7 | 23:35.53 | 3:43.04 | 106178 | 122906
8 | 27:18.57 | 4:49.21 | 122907 | 144602
9 | 32:08.03 | 5:33.68 | 144603 |




(2012) Our Lady Peace / Curve (Alternative/Rock) [FLAC (tracks+.cue), lossless]
Информация
Посетители, находящиеся в группе Гости, не могут оставлять комментарии к данной публикации.