Вход на сайт

Введите ваш логин:
Введите ваш пароль:
Напомнить пароль

Лучшие торренты тут у нас

(2012) Les Friction / Les Friction (Alt. Rock/Neo-Classical/Orchestral) [FLAC (tracks+.cue), lossless]









Альбом: Les Friction
Тип альбома: Cтудийный
Год выпуска: 2012
Страна: США
Жанр: Alt. Rock/Neo-Classical/Orchestral
Формат: FLAC (tracks+.cue)
Битрейт: lossless
Log-файл: Присутствует
Продолжительность: 00:35:54


01. Louder Than Words (04:46)
02. Torture (guitar solo by Bruce Watson) (05:05)
03. What You Need (03:32)
04. Here Comes the Reign (03:50)
05. World on Fire (03:52)
06. Save Your Life (03:10)
07. Sunday (03:36)
08. String Theory (04:08)
09. Come Back to Me (feat. Emily Valentine) (03:51)

Отчет "EAC" ▼TextExact Audio Copy V1.0 beta 3 from 29. August 2011

EAC extraction logfile from 31. January 2012, 16:33

Les Friction / Les Friction

Used drive : TSSTcorpDVDWBD SH-B123L Adapter: 0 ID: 0

Read mode : Secure
Utilize accurate stream : Yes
Defeat audio cache : Yes
Make use of C2 pointers : No

Read offset correction : 6
Overread into Lead-In and Lead-Out : No
Fill up missing offset samples with silence : Yes
Delete leading and trailing silent blocks : No
Null samples used in CRC calculations : Yes
Used interface : Native Win32 interface for Win NT & 2000
Gap handling : Appended to previous track

Used output format : User Defined Encoder
Selected bitrate : 1024 kBit/s
Quality : High
Add ID3 tag : No
Command line compressor : D:Program FilesExact Audio CopyFlacflac.exe
Additional command line options : -8 -V -T "ARTIST=%artist%" -T "TITLE=%title%" -T "ALBUM=%albumtitle%" -T "DATE=%year%" -T "TRACKNUMBER=%tracknr%" -T "GENRE=%genre%" -T "PERFORMER=%albuminterpret%" -T "COMPOSER=%composer%" %haslyrics%--tag-from-file=LYRICS="%lyricsfile%"%haslyrics% -T "ALBUMARTIST=%albumartist%" -T "DISCNUMBER=%cdnumber%" -T "TOTALDISCS=%totalcds%" -T "TOTALTRACKS=%numtracks%" -T "COMMENT=%comment%" %source% -o %dest%

TOC of the extracted CD

Track | Start | Length | Start sector | End sector
---------------------------------------------------------
1 | 0:00.00 | 4:46.17 | 0 | 21466
2 | 4:46.17 | 5:05.50 | 21467 | 44391
3 | 9:51.67 | 3:32.44 | 44392 | 60335
4 | 13:24.36 | 3:50.17 | 60336 | 77602
5 | 17:14.53 | 3:52.55 | 77603 | 95057
6 | 21:07.33 | 3:10.59 | 95058 | 109366
7 | 24:18.17 | 3:36.06 | 109367 | 125572
8 | 27:54.23 | 4:08.52 | 125573 | 144224
9 | 32:03.00 | 3:51.12 |&nb




(2012) Les Friction / Les Friction (Alt. Rock/Neo-Classical/Orchestral) [FLAC (tracks+.cue), lossless]
Информация
Посетители, находящиеся в группе Гости, не могут оставлять комментарии к данной публикации.