Вход на сайт

Введите ваш логин:
Введите ваш пароль:
Напомнить пароль

Лучшие торренты тут у нас

Рождество Христово - Торжественное Рождественское богослужение из Храма Христа Спасителя (Церемония, 31.12.2012) [DVB, Не требуется]







Рождество Христово(трансляция с храма Христа спасителя)

Страна: Россия
Производство: Первый канал
Дата выхода в эфир: 07.01.2013
Жанр: Торжественное Рождественское богослужение

Перевод: Не требуется

Описание: Первый канал представляет трансляцию рождественского богослужения из Храма Христа Спасителя в Москве.
Рождество – один из главных христианских праздников, установленный в честь рождения Иисуса Христа от Девы Марии. Русская православная церковь и другие церкви, использующие юлианский календарь, празднуют Рождество 7 января

Качество видео: DVB
Продолжительность: 02:46:36

Формат видео: MPEG-PS
Видео кодек: MPEG2
Аудио кодек: MPEG
Свойства Видео: [email protected] (16:9), MPEG-2 Video, 25 fps, 4193 kbps, 0.404 bit/pixel
Свойства Аудио: MPEG Audio (Version 1) Layer 2, 2 сh, 48 KHz, 192 kbps


Media info
▼General
Complete name : G:КинофильмыДекабрь 2012Рождество Христово. (2013)_DVB.mpg
Format : MPEG-PS
File size : 5.21 GiB
Duration : 2h 46mn
Overall bit rate : 4 474 Kbps
Writing library : (c) 1998-2010 Womble Multimedia, Inc. / MPEG Video Wizard DVD 5.0.0.114 (01/2010) / Apr 20 2010

Video
ID : 224 (0xE0)
Format : MPEG Video
Format version : Version 2
Format profile : [email protected]
Format settings, BVOP : Yes
Format settings, Matrix : Default
Duration : 2h 46mn
Bit rate mode : Variable
Bit rate : 4 193 Kbps
Nominal bit rate : 15.0 Mbps
Width : 720 pixels
Height : 576 pixels
Display aspect ratio : 16:9
Frame rate : 25.000 fps
Standard : PAL
Color space : YUV
Chroma subsampling : 4:2:0
Bit depth : 8 bits
Scan type : Interlaced
Scan order : Top Field First
Bits/(Pixel*Frame) : 0.404
Stream size : 4.88 GiB (94%)
Writing library : (c) 1998-2010 Womble Multimedia, Inc. / MPEG Video Wizard DVD 5.0.0.114 (01/2010) / Apr 20 2010

Audio
ID : 192 (0xC0)
Format : MPEG Audio
Format version : Version 1
Format profile : Layer 2
Duration : 2h 46mn
Bit rate mode : Constant
Bit rate : 192 Kbps
Channel(s) : 2 channels
Sampling rate : 48.0 KHz
Video delay : -40ms
Stream size : 229 MiB (4%)









 Рождество Христово - Торжественное Рождественское богослужение из Храма Христа Спасителя (Церемония, 31.12.2012) [DVB, Не требуется]
Информация
Посетители, находящиеся в группе Гости, не могут оставлять комментарии к данной публикации.