Вход на сайт

Введите ваш логин:
Введите ваш пароль:
Напомнить пароль

Лучшие торренты тут у нас

Ведьмак / Wiedzmin / The Witcher // Сезон 1, эпизоды с 1 по 13 (из 13) (фэнтези,приключения, 2002) [DVDRip, Профессиональный (многоголосый, закадровый)]







Ведьмак / Wiedzmin /The Witcher

Сезон 1, Эпизоды с 1 по 13 (из 13)

Год выпуска: 2002
Страна: Польша
Производство: Telewizja Polska
Жанр: фэнтази, приключения

Режиссёр: Марек Бродский / Marek Brodzki
В ролях: Михал Жебровский, Сильвестр Мачеевский, Андзей Дабровски, Павел Щиценски, Анджей Хыра, Мальгорзата Жатовт, Юлита Фамальска, Казимеж Мазур, Рышард Котыс, Збигнев Замаховский

Перевод: Профессиональный (многоголосый закадровый)
Озвучка: неизв.
Субтитры: Нет

Описание: Телесериал «Ведьмак» (Wiedzmin) снят по одноименному литературному сериалу польского фантаста Анджея Сапковского, а в частности книг “Меч Предназначения” и “Последнее желание”.

В незапамятные времена, когда по земле бродили великаны и гномы, а коварные драконы похищали прекрасных принцесс, бесстрашные ведьмаки защищали мир от чудовищ, угрожавших людям.
Среди них был Геральт из Ривии, воспитанник мудрых друидов, поклявшийся помогать всем, кто оказался в беде, не вмешиваясь в мирские дела. Но кровавые монаршие распри и человеческая жестокость вынудили его встать на сторону маленького королевства Цинтра, которое пало жертвой расы сверхчеловеков, кровью и мечом завоевывающей соседние страны.
Теперь отважный Геральт должен обойти полсвета, чтобы разыскать похищенную королеву Цири, ибо только она может восстановить мир и порядок в родной Цинтре. Защищая правду и карая зло, отважный ведьмак тяжелым мечом и великой магией освободит родные земли от тени захватчиков и вернет обитателям древних земель долгожданный мир и покой.

Список эпизодов: ▼
1. Детство
2. Обучение
3. Человек, первая встреча
4. Дракон
5. Осколок льда
6. Калантэ
7. Долина цветов
8. Перепутие
9. Святилище Мелитери
10. Меньшее зло
11. Лютик
12. Фальви
13. Оцири




Все раздачи сериала:

Качество: DVDRip(Исходник - 5 x DVD9)
Продолжительность:~00:48:00 х 13

Формат: AVI
Видео кодек: XviD
Аудио кодек: MP3
Свойства видео: 624x368 (1.70:1), 25 fps, XviD build 64 ~874 kbps avg, 0.15 bit/pixel
Свойства аудио: 48 kHz, MPEG Layer 3, 2 ch, ~128.00 kbps avg
MediaInfo: ▼
Общее
Полное имя : D:DownloadsВедьмак_4.37Ведьмак_4.371 - Детство.avi
Формат : AVI
Формат/Информация : Audio Video Interleave
Размер файла : 384 Мбайт
Продолжительность : 52 м.
Общий поток : 1013 Кбит/сек
Программа кодирования : VirtualDubMod 1.5.10.3 | www.virtualdub-fr.org || (build 2550/release)
Библиотека кодирования : VirtualDubMod build 2550/release
Видео
Идентификатор : 0
Формат : MPEG-4 Visual
Профиль формата : Advanced [email protected]
Параметр BVOP формата : 2
Параметр QPel формата : Нет
Параметр GMC формата : Без точки перехода
Параметр матрицы формата : Выборочная
Идентификатор кодека : XVID
Идентификатор кодека/Подсказка : XviD
Продолжительность : 52 м.
Битрейт : 875 Кбит/сек
Ширина : 624 пикселя
Высота : 368 пикселей
Соотношение сторон : 1,696
Частота кадров : 25,000 кадров/сек
Цветовое пространство : YUV
Субдискретизация насыщенности : 4:2:0
Битовая глубина : 8 бит
Тип развёртки : Прогрессивная
Метод сжатия : С потерями
Бит/(Пиксели*Кадры) : 0.152
Размер потока : 332 Мбайт (86%)
Библиотека кодирования : XviD 64
Аудио
Идентификатор : 1
Формат : MPEG Audio
Версия формата : Version 1
Профиль формата : Layer 3
Идентификатор кодека : 55
Идентификатор кодека/Подсказка : MP3
Продолжительность : 52 м.
Вид битрейта : Постоянный
Битрейт : 128 Кбит/сек
Каналы : 2 канала
Частота : 48,0 КГц
Метод сжатия : С потерями
Размер потока : 48,5 Мбайт (13%)
Выравнивание : Соединение по промежуткам
Продолжительность промежутка : 40 мс. (1,00 видеокадр)
Время предзагрузки промежутка : 504 мс.
Библиотека кодирования : LAME3.98r
Настройки программы : -m s -V 4 -q 0 -lowpass 17 -b 128







Ведьмак / Wiedzmin / The Witcher // Сезон 1, эпизоды с 1 по 13 (из 13) (фэнтези,приключения, 2002) [DVDRip, Профессиональный (многоголосый, закадровый)]
Информация
Посетители, находящиеся в группе Гости, не могут оставлять комментарии к данной публикации.