Вход на сайт

Введите ваш логин:
Введите ваш пароль:
Напомнить пароль

Лучшие торренты тут у нас

NBA 2012-2013 / RS / 05.11.2012 / Phoenix Suns @ Miami Heat (Русская версия) [Баскетбол, 05.11.2012 ,WEB-DL HD/720p, MKV/H.264, RU/545TV] 60 fps







Phoenix Suns @ Miami Heat


Вид спорта:: Баскетбол
Год выпуска: 2012
Язык комментариев: РУССКИЙ!!!
Участники: Phoenix Suns @ Miami Heat

Описание:Регулярный сезон 2012-2013

Качество: HDTVRip
Продолжительность: 01:42:36

Формат:MKV
Видео кодек:H.264
Аудио кодек:AAC
Свойства видео: 16:9 1280 x 720 59.940 fps 4495 kbps
Свойства аудио: 44,1 KHz 2ch 128 kbps

Полные тех. данные:
▼C:UsersОлегDesktopNBA RS 05.11.2012 [email protected] - 720p (60 fps) (545TV-Максим Терещук).mkv
General
Unique ID : 234555359552388044995707782219056874732 (0xB075B8142CCBFE86B42F08BD826504EC)
Complete name : C:UsersОлегDesktopNBA RS 05.11.2012 [email protected] - 720p (60 fps) (545TV-Максим Терещук).mkv
Format : Matroska
Format version : Version 2
File size : 3.25 GiB
Duration : 1h 42mn
Overall bit rate : 4 540 Kbps
Encoded date : UTC 2012-11-06 08:35:23
Writing application : mkvmerge v4.9.1 (Ich will) сборка от Jul 11 2011 23:53:15
Writing library : libebml v1.2.1 + libmatroska v1.1.1
Video #1
ID : 1
Format : AVC
Format/Info : Advanced Video Codec
Format profile : [email protected]
Format settings, CABAC : Yes
Format settings, ReFrames : 3 frames
Muxing mode : Header stripping
Codec ID : V_MPEG4/ISO/AVC
Duration : 1h 42mn
Bit rate : 4 322 Kbps
Width : 1 280 pixels
Height : 720 pixels
Display aspect ratio : 16:9
Frame rate mode : Constant
Frame rate : 60.000 fps
Original frame rate : 59.940 fps
Color space : YUV
Chroma subsampling : 4:2:0
Bit depth : 8 bits
Scan type : Progressive
Bits/(Pixel*Frame) : 0.078
Stream size : 3.10 GiB (95%)
Default : Yes
Forced : No
Audio #2
ID : 2
Format : MPEG Audio
Format version : Version 1
Format profile : Layer 3
Mode : Joint stereo
Mode extension : MS Stereo
Muxing mode : Header stripping
Codec ID : A_MPEG/L3
Codec ID/Hint : MP3
Duration : 1h 42mn
Bit rate mode : Constant
Bit rate : 128 Kbps
Channel(s) : 2 channels
Sampling rate : 44.1 KHz
Compression mode : Lossy
Stream size : 93.9 MiB (3%)
Default : Yes
Forced : No
&n




NBA 2012-2013 / RS / 05.11.2012 / Phoenix Suns @ Miami Heat (Русская версия) [Баскетбол, 05.11.2012 ,WEB-DL HD/720p, MKV/H.264, RU/545TV] 60 fps
Информация
Посетители, находящиеся в группе Гости, не могут оставлять комментарии к данной публикации.