Вход на сайт

Введите ваш логин:
Введите ваш пароль:
Напомнить пароль

Лучшие торренты тут у нас

Wimbledon 2012 / Финал / Роджер Федерер (Швейцария) — Энди Маррей (Великобритания) / Federer — Murray / НТВ+ [Теннис, 08.07.2012, SD, XviD, RU, SAT]







Wimbledon 2012

Финал
Роджер Федерер (Швейцария) — Энди Маррей (Великобритания)
Вид спорта: Большой теннис
Год выпуска: 08.07.2012
Язык комментариев: Русский (Александр Метревели - Анна Дмитриева)
Участники: Роджер Федерер (Швейцария) — Энди Маррей (Великобритания)
Описание: Wimbledon 2012 / Финал
Место: Лондон, Великобритания
Дата: 25.06.2012 - 08.07.2012
Стадион: Всеанглийский клуб лаун-тенниса и крокета
Покрытие: Трава (открытые корты)
Призовой фонд: $ 9.061.792
Результат матча ▼
Качество: SATRip
Продолжительность ▼04:11:55
Формат: AVI
Видео кодек: XviD
Аудио кодек: MP3
Свойства видео: 704x400, 25 fps, 1.8 Мbps, 0.256 bit/pixel
Свойства аудио: 48 kHz, MPEG Layer 3, 2 ch, 128 kbps
Тех. описание ▼
Format : AVI
Format/Info : Audio Video Interleave
File size : 3.41 GiB
Duration : 4h 11mn
Overall bit rate : 1 937 Kbps

Video
ID : 0
Format : MPEG-4 Visual
Codec ID : XVID
Codec ID/Hint : XviD
Duration : 4h 11mn
Bit rate : 1 799 Kbps
Width : 704 pixels
Height : 400 pixels
Display aspect ratio : 16:9
Frame rate : 25.000 fps
Color space : YUV
Chroma subsampling : 4:2:0
Compression mode : Lossy
Bits/(Pixel*Frame) : 0.256
Stream size : 2.49 GiB (73%)

Audio
ID : 1
Format : MPEG Audio
Codec ID : 55
Codec ID/Hint : MP3
Duration : 4h 11mn
Bit rate : 128 Kbps
Channel(s) : 2 channels
Sampling rate : 48.0 KHz
Compression mode : Lossy
Stream size : 182 MiB (5%)
Alignment : Aligned on interleaves
Interleave, duration : 40 ms (1.00 video frame)

Стол заказов POWER | Отзывы | Вступление в POWER
Мои раздачи
Храню файлы 3 дня, потом удаляю







Wimbledon 2012 / Финал / Роджер Федерер (Швейцария) — Энди Маррей (Великобритания) / Federer — Murray / НТВ+ [Теннис, 08.07.2012, SD, XviD, RU, SAT]
Информация
Посетители, находящиеся в группе Гости, не могут оставлять комментарии к данной публикации.