Вход на сайт

Введите ваш логин:
Введите ваш пароль:
Напомнить пароль

Лучшие торренты тут у нас

Halo 4: Идущий к рассвету / Halo 4: Forward Unto Dawn // Сезон 1, эпизод 1 по 5 (из 5) (фантастика, 2012) [WEB-DLRip, Любительский (двухголосый, закадровый) от Alternative Production + Оригинал]







«Halo 4: Идущий к рассвету / Halo 4: Forward Unto Dawn»

«Сезон 1, эпизод 1 по 5 (из 5)»

Год выпуска: 2012
Страна: США
Производство: 343 Industries
Жанр: фантастика

Режиссёр: Стюарт Хендлер /Stewart Hendler
В ролях: Айэйн Белчер (Iain Belcher), Дженна Берман (Jenna Berman), Эниша Брюстер (Enisha Brewster), Дэниэл Кадмор (Daniel Cudmore), Майк Допуд (Mike Dopud), Анна Попплуэлл (Anna Popplewell)

Перевод: Любительский (двухголосый, закадровый), Оригинал
Озвучка: Alternative Production
Субтитры: нет

Описание
Эта история возвращает игроков к началу войны между людьми и Ковенантами и подводит к событиям, происходящим в игре Halo 4. В стенах военной академии Космического Командования Объединённых Наций (UNSC) группу курсантов знатного происхождения готовят стать следующим поколением солдат в надвигающейся войне между UNCS и повстанцами на колониальных планетах. Один из кадетов, Томас Ласки, ведет внутреннюю борьбу, преодолевая сомнения по поводу войны и опасения не оправдать высоких ожиданий командования. К тому моменту, как Ласки смирился со своей ролью будущего командира, ужасающее войско альянса Ковенант вторгается на планету и переворачивает привычный мир героя с ног на голову. Вдохновлённый подвигами Мастера Чифа, Ласки должен на собственном опыте узнать, что значит быть героем.

Список Эпизодов ▼
Эпизод 1.
Эпизод 2.
Эпизод 3.
Эпизод 4.
Эпизод 5.



Все раздачи сериала

Качество: WEB-DLRip
Продолжительность: по ~ 00:20:00 часа

Формат: Matroska-MKV-
Видео кодек: XviD MPEG-4 Visual
Аудио кодек: Audio Coding 3
Свойства видео: 1280x528(2.40:1),23.976 fps, XviD ~2197 kbps avg, 0.136 bit/pixel
Свойства аудио: 48 kHz, AC3 Dolby Digital, 2/0 (L,R) ch, ~192 kbps Rus
Свойства аудио: 48 kHz, AC3 Dolby Digital, 2/0 (L,R) ch, ~192 kbps Eng
MediaInfo ▼TextФормат : Matroska
Версия формата : Version 2
Размер файла : 366 Мбайт
Продолжительность : 19 м.
Общий поток : 2633 Кбит/сек
Дата кодирования : UTC 2012-10-14 17:58:02
Программа кодирования : mkvmerge v5.7.0 (The Whirlwind) built on Jul 8 2012 20:08:51
Библиотека кодирования : libebml v1.2.3 + libmatroska v1.3.0

Видео
Идентификатор : 1
Формат : MPEG-4 Visual
Профиль формата : Advanced [email protected]
Параметр BVOP формата : Да
Параметр QPel формата : Нет
Параметр GMC формата : Без точки перехода
Параметр матрицы формата : Default (H.263)
Идентификатор кодека : XVID
Идентификатор кодека/Подсказка : XviD
Продолжительность : 19 м.
Битрейт : 2197 Кбит/сек
Ширина : 1280 пикселей
Высота : 528 пикселей
Соотношение сторон : 2,40:1
Частота кадров : 23,976 кадра/сек
Цветовое пространство : YUV
Субдискретизация насыщенности : 4:2:0
Битовая глубина : 8 бит
Тип развёртки : Прогрессивная
Метод сжатия : С потерями
Бит/(Пиксели*Кадры) : 0.136
Размер потока : 305 Мбайт (83%)
Библиотека кодирования : XviD 73
Язык : English
Default : Да
Forced : Нет

Аудио #1
Идентификатор : 2
Формат : AC-3
Формат/Информация : Audio Coding 3
Расширение режима : CM (complete main)
Идентификатор кодека : A_AC3
Продолжительность : 19 м.
Вид битрейта : Постоянный
Битрейт : 192 Кбит/сек
Каналы : 2 канала
Расположение каналов : Front: L R
Частота : 48,0 КГц
Битовая глубина : 16 бит
Метод сжатия : С потерями
Размер потока : 26,7 Мбайт (7%)
Заголовок : DVO Alternative production
Язык : Russian
Default : Да
Forced : Нет

Аудио #2
Идентификатор : 3
Формат : AC-3
Формат/Информация : Audio Coding 3
Расширение режима : CM (complete main)
Идентификатор кодека : A_AC3
Продолжительность : 19 м.
Вид битрейта : Постоянный
Битрейт : 192 Кбит/сек
Каналы : 2 канала
Расположение каналов : Front: L R
Частота : 48,0 КГц
Битовая глубина : 16 бит
Метод сжатия : С потерями
Размер потока : 26,7 Мбайт (7%)
Язык : English
Default : Нет
Forced : Нет


Как закачать отдельный файл из торрента!







Halo 4: Идущий к рассвету / Halo 4: Forward Unto Dawn // Сезон 1, эпизод 1 по 5 (из 5) (фантастика, 2012) [WEB-DLRip, Любительский (двухголосый, закадровый) от Alternative Production + Оригинал]
Информация
Посетители, находящиеся в группе Гости, не могут оставлять комментарии к данной публикации.